#TITLE:Umbrella;
#SUBTITLE:;
#ARTIST:Rihanna ft JayZ;
#TITLETRANSLIT:Umbrella;
#SUBTITLETRANSLIT:;
#ARTISTTRANSLIT:Rihanna ft JayZ;
#CREDIT:;
#BANNER:Umbrella-bn.png;
#BACKGROUND:Umbrella-bg.png;
#LYRICSPATH:;
#CDTITLE:pm4cd.png;
#MUSIC:Umbrella.mp3;
#OFFSET:0.100;
#SAMPLESTART:54.950;
#SAMPLELENGTH:20.000;
#SELECTABLE:YES;
#BPMS:0.000=87.000,39.750=174.000,41.750=43.500,42.750=87.000;
#STOPS:;
#BGCHANGES:;
// cache tags:
#FIRSTBEAT:0.750;
#LASTBEAT:388.750;
#SONGFILENAME:Songs/Music V.I.P ^_^/Umbrella/Umbrella.sm;
#HASMUSIC:1;
#HASBANNER:1;
#MUSICLENGTH:276.146;
// end cache tags

//---------------dance-single - ----------------
#NOTES:
     dance-single:
     :
     Hard:
     11:
     0.859,0.827,1.000,0.518,1.000,874.000,483.000,143.000,0.000,364.000:
0000
0000
0000
1111
0000
0100
0000
0011
0000
0100
1000
0000
1000
0100
0000
1100
,
0000
0001
0000
1111
0000
0001
0000
1010
0000
0100
0010
0000
0010
0100
0000
0011
,
0011
0001
0000
1111
0000
0100
0000
1010
0000
0001
1000
0000
1000
0001
0000
0011
,
0000
0100
0000
1111
0000
0100
0000
1001
0000
1000
0010
0000
0010
1000
0000
0101
,
0101
0010
0000
1120
0000
0001
0000
0101
0000
0001
1100
0000
1000
0101
0000
1100
,
0000
1000
1030
1102
0000
0100
0000
0110
0000
1000
0110
0000
0010
1100
0000
1100
,
1100
1000
0003
1021
0000
1000
0000
1001
0000
0100
1001
0000
0001
1100
0000
1100
,
0000
0100
0130
2110
0000
0001
0000
0011
0000
0100
0011
0000
0001
0110
0000
0101
,
0101
0100
3000
0112
0000
0010
0000
1010
0000
1000
0110
0000
0010
1100
0000
1010
,
0000
0010
0013
1021
0000
0100
0000
1001
0000
0001
1100
0000
1000
0101
0000
0200
,
0000
0000
0030
0000
0000
0000
1000
0000
0000
0000
1000
0000
0300
0000
1021
0000
0100
0000
0000
0000
0100
1001
0000
0000
0100
0000
1100
0000
0000
0000
0101
0000
,
0000
0001
0031
2101
0000
0010
0000
0110
0000
0001
0110
0000
0100
0011
0000
0110
,
0110
0100
3000
1111
0000
0001
0000
0110
0000
1000
0101
0000
0010
1100
0000
0101
,
0000
0010
0000
1111
0000
1000
0000
0110
0000
0001
1010
0000
0100
0011
0000
1100
,
1100
1000
0000
1111
0000
0001
0000
1010
0000
0100
1001
0000
0001
0110
0000
1100
,
0000
0001
0000
1111
0000
0001
0000
0101
0000
0010
1100
0000
0001
0110
0000
1010
,
1010
0010
0000
1111
0000
0001
0000
0011
0000
1000
0110
0000
0100
1010
0000
0101
,
0000
0010
0000
1111
0000
0001
0000
1100
0000
0010
0101
0000
0100
1001
0000
0011
,
0011
0010
0000
1111
0000
0001
0000
1001
0000
0100
0011
0000
0010
1001
0000
0120
,
0000
0000
1000
0000
0000
0030
1111
0000
0000
0000
1000
0000
0000
0000
0101
0000
0000
0000
0010
0000
1100
0000
0000
0000
0001
0000
1010
0000
0000
0000
1100
0000
,
1100
1000
0000
1121
0000
0100
0000
1001
0100
0001
1100
0000
0100
1001
0000
0101
,
0000
1000
1030
2111
0000
0001
0000
0101
0000
0001
0110
0000
0010
0101
0000
0011
,
0011
0010
3000
1121
0000
1000
0000
0101
1000
0001
1100
0000
0100
1001
0000
1100
,
0000
1000
0030
1112
0000
1000
0100
1010
0000
0010
1100
0010
0100
1010
0000
0110
,
0110
0100
0003
2111
0000
0001
0000
0110
0000
0100
0011
0000
0001
0110
0000
0101
,
0000
0010
3000
1211
0000
0010
0000
1001
0000
0001
1010
0000
1000
0011
0000
1010
,
1010
1000
0300
1121
0000
1000
0000
1100
0001
0100
1001
0100
1000
0101
0000
1001
,
0000
0100
0030
1112
0000
0100
0000
1010
0100
0010
1100
0010
0100
1010
0000
1100
,
1100
0100
0003
2111
0000
0000
0000
0200
0001
0000
3000
0002
0010
0000
0000
2310
,
0000
0000
0003
0121
0000
0000
3000
0200
0000
0000
0000
0032
0010
1000
0310
1120
,
1100
0100
0003
2101
0000
0000
0030
0002
0100
0000
3000
0020
1000
0000
0003
1200
,
0000
0000
0030
1021
0000
0000
0300
0102
0000
0000
0030
0200
0010
1000
0013
1021
,
1001
1000
0300
1102
0000
0000
0030
2000
0010
0000
0003
0020
0100
0000
3000
0201
,
0000
0000
0030
1012
0000
0000
0300
0200
0000
0000
0003
2000
0010
0001
0310
0121
,
0101
0001
3000
1201
0000
0000
0030
0002
1000
0000
0300
2000
0100
0000
0003
0120
,
0000
0000
3000
1201
0000
0000
0030
0002
0000
0000
0300
2000
0000
0000
0003
0011
,
0011
0001
3000
1111
0000
0100
0000
1001
0000
0010
1100
0000
0001
1010
0000
0011
,
0100
1000
0000
1111
0000
0001
0000
1010
0000
0100
1001
0000
1000
0110
0000
0101
,
0101
0100
0000
1111
0000
0010
0000
0011
0000
1000
0110
0000
0100
1001
0000
1010
,
0000
0100
0000
1111
0000
0001
0000
1010
0000
1000
0101
0000
0010
1100
0000
0112
,
0110
0100
0003
1111
0000
0100
0000
1010
0000
0001
0110
0000
0100
0011
0000
1100
,
0000
0001
0000
1111
0000
0100
0000
0101
0000
0010
1100
0000
0100
0011
0000
1001
,
1001
0001
0000
1111
0000
0001
0000
0011
0000
1000
0110
0000
1000
0101
0000
1010
,
0100
0010
0001
1111
0000
0100
0000
0011
0000
1000
0110
0000
0100
1010
0000
0011
,
0011
0010
0000
1121
0000
0100
0000
1100
0001
0100
1001
0000
0001
1100
0000
0101
,
0000
0100
0130
2111
0000
0100
0000
0011
0000
0001
0110
0000
0100
0011
0000
0110
,
0110
0010
3000
1211
0000
0010
0000
1001
0000
0001
0011
0000
0001
1010
0000
0011
,
0000
0010
0300
1121
0000
0001
0100
1100
0000
0001
1100
0001
0100
1001
0000
1100
,
1100
1000
0030
1112
0000
0100
0000
1010
0000
0100
0110
0000
0010
1100
0000
0110
,
0000
0010
0013
1211
0000
0001
0000
1010
0000
0001
0011
0000
1000
1010
0000
1001
,
1001
1000
0300
1112
0000
0010
0000
1100
0010
1000
0110
1000
0010
1100
0000
1010
,
0000
0100
0003
1121
0000
1000
0000
0101
1000
0100
1001
0100
1000
0101
0000
1100
,
1100
0100
0030
2112
0000
0000
0000
0200
0010
0000
3000
0020
1000
0000
0300
2100
,
0000
0000
0033
0212
0000
0000
3000
1020
0000
0000
0003
2000
0000
0001
0030
0012
,
0010
0010
3300
2210
0000
0000
0003
0020
0001
0000
0300
0200
0001
0000
0030
0002
,
0000
0000
3300
2120
0000
0000
0003
0201
0000
0000
3000
0002
0000
1000
0300
1200
,
1000
1000
0033
1022
0000
0000
0300
0200
1000
0000
0030
2000
0010
0000
0300
0120
,
0000
0000
3003
1202
0000
0000
0030
1020
0000
0000
0003
2000
0000
0001
0030
0012
,
0010
0010
3300
2120
0000
0000
0003
0200
0001
0000
0030
0002
0010
0000
0300
0200
,
0000
0000
3003
1021
0000
0000
0300
1002
0000
0000
0000
2100
0000
0000
0003
0102
,
0100
0000
0100
0000
3030
0000
1203
0000
0000
0000
0000
0000
0000
0000
1001
0000
0000
0000
0000
0000
0000
0010
0000
0000
0000
0000
0010
0000
0000
0000
1000
0000
,
0000
0000
0000
0000
0000
0000
0321
0000
0000
0000
0000
0000
0000
0000
1001
0000
0000
0000
0000
0000
0000
0100
0000
0000
0000
0000
0100
0000
0000
0000
0001
0000
,
0001
0000
0000
0000
0000
0000
2130
0000
0000
0000
0000
0000
0000
0000
0101
0000
0000
0000
0000
0000
0000
0100
0000
0000
0000
0000
0100
0000
0000
0000
0010
0000
,
0000
0000
0000
0000
0000
0000
3102
0000
0000
0000
0000
0000
0000
0000
1100
0000
0000
0000
0000
0000
0000
0010
0000
0000
0000
0000
0010
0000
0000
0000
0100
0000
,
0100
0000
0000
0000
0000
0000
1023
0000
0000
0000
0000
0000
0000
0000
1001
0000
0000
0000
0000
0000
0000
1000
0000
0000
0000
0000
1000
0000
0000
0000
0100
0000
,
0000
0000
0000
0000
0000
0000
2031
0000
0000
0000
0000
0000
0000
0000
0011
0000
0000
0000
0000
0000
0000
0100
0000
0000
0000
0000
0100
0000
0000
0000
0001
0000
,
0001
0000
0000
3201
0000
0010
0000
1001
0000
0010
1001
0000
0001
1010
0000
1001
,
0000
0001
0300
1121
0000
0100
0000
1100
0000
0001
0101
0000
0100
1001
0000
1100
,
1100
1000
0030
1112
0000
0100
0000
1010
0100
1000
0110
0000
0100
1010
0000
0110
,
0000
0010
0013
1211
0000
0010
0000
1001
0000
0010
0011
0000
1000
1010
0000
0011
,
0011
0001
0300
2111
0000
0001
0000
0110
0000
0100
0011
0000
0010
0101
0000
0110
,
0000
0001
3000
1112
0000
1000
0100
1010
0000
1000
0110
1000
0010
1100
0000
0110
,
0110
0010
0003
1211
0000
0001
0000
1010
0000
0001
0011
0000
0010
1001
0000
1010
,
0000
0001
0301
2111
0000
0100
0000
0011
0000
0100
0101
0000
0001
0110
0000
0011
,
0011
0010
3000
1112
0000
0010
0000
1100
0010
0100
1010
0100
0010
1100
0000
0110
,
0000
0100
0003
1121
0000
1000
0000
0101
1000
0100
1001
0100
1000
0101
0000
1100
,
1100
1000
0030
1121
0000
0000
0000
0200
1000
0000
0030
0002
0010
0000
0300
2010
,
0000
0000
0003
0121
0000
0000
3000
1002
0000
0000
0030
0200
0010
1000
0013
1021
,
1001
0001
0300
2101
0000
0000
0030
0002
0010
0000
3000
0020
0100
0000
0003
2001
,
0000
0000
0030
0211
0000
0000
3000
0002
0000
0000
0300
0010
0100
1000
0103
2110
,
0110
0010
0000
0211
0000
0000
3000
0002
0010
0000
0300
0020
1000
0000
0003
1200
,
0000
0000
0030
2011
0000
0000
0300
0201
0000
0000
3000
0002
0010
1000
0310
2110
,
0110
0100
0003
0211
0000
0000
3000
0002
1000
0000
0300
2000
0100
0000
0003
0021
,
0000
0000
3000
1201
0000
0000
0030
2001
0000
0000
0300
0200
0000
0000
3000
0011
,
0011
0001
0300
1111
0000
0011
0000
0110
0000
1100
0110
0000
0110
1100
0000
0101
,
0010
0001
0010
1111
0000
1100
0000
0110
0000
0011
0110
0000
0110
0011
0000
1100
,
1100
1100
0000
1111
0000
1001
0000
0110
0000
0101
1010
0000
1010
0101
0000
1001
,
0000
0110
0000
1111
0000
0101
0000
0110
0000
1100
1001
0000
1001
1100
0000
0110
,
0110
0110
0000
1111
0000
1010
0000
0011
0000
1010
0101
0000
0101
1010
0000
1001
,
0100
1000
0100
1111
0000
0110
0000
1100
0000
1001
0110
1000
0110
1001
0100
1010
,
1010
1010
0000
1111
0000
0011
0000
1100
0000
0011
0110
0000
0110
0011
0000
1001
,
0000
1010
0000
1111
0000
0101
0000
0011
0000
1010
1001
0000
1001
1010
0000
0101
,
0101
0101
0000
1111
0000
1010
0000
1100
0000
0011
1100
0000
1100
0011
0000
1001
,
0000
0110
0000
1111
0000
1001
0000
0110
0000
1010
0101
0000
0101
1010
0000
1100
,
1100
1100
0000
1111
0000
0011
0000
1001
0000
0110
1001
0000
1001
0110
0000
1001
,
0000
0101
0000
1111
0000
1100
0000
0110
0000
0101
0011
0000
0011
0101
0000
0110
,
0110
0110
0000
1111
0000
1100
0000
1001
0000
0011
0110
0000
0110
0011
0000
1100
,
0000
1001
0000
1111
0000
0000
0000
0000
0000
0000
0000
0000
0000
0000
0000
0000
;

//---------------dance-single - ----------------
#NOTES:
     dance-single:
     :
     Medium:
     1:
     0.000,0.000,0.000,0.000,0.000,0.000,0.000,0.000,0.000,0.000:
0000
0000
0000
0000
;

//---------------dance-single - ----------------
#NOTES:
     dance-single:
     :
     Easy:
     1:
     0.000,0.000,0.000,0.000,0.000,0.000,0.000,0.000,0.000,0.000:
0000
0000
0000
0000
;
